Loading...
Error
 

Скачать торрент (Deep Techno, Chill Out, Leftfield, Modern Classical) Christian Loffler - Parallels: Shellac Reworks By Christian Loffler - 2021, [TR24] [OF] [FLAC, tracks, lossless]

 
Автор Сообщение

Myster_Ya

post 23-Фев-21 07:50

Parallels: Shellac Reworks By Christian Loffler
pic

Формат записи/Источник записи: [TR24][OF]
Наличие водяных знаков: Нет
Год издания: 2021
Жанр: Deep Techno, Chill Out, Leftfield, Modern Classical
Издатель (лейбл): Deutsche Grammophon
Продолжительность: 00:48:19
Наличие сканов в содержимом раздачи: Буклет PDF
Контейнер: FLAC (*.flac)
Тип рипа: tracks
Разрядность: 24/96
Формат: PCM
Количество каналов: 2.0
Источник (релизер): highresaudio.com
Треклист
01. Parsifal (2:46)
02. Moldau (7:21)
03. Dir Jehova (4:12)
04. Gavotte (3:09)
05. Nocturne (4:11)
06. Nadir (1:54)
07. Pastoral (3:41)
08. Fate (4:08)
09. Freiyheit (3:02)
10. Funebre (13:41)
Лог проверки качества

Код:

foobar2000 1.4.8 / Dynamic Range Meter 1.1.1
log date: 2021-02-13 07:55:55

--------------------------------------------------------------------------------
Analyzed: Christian Löffler / Parallels: Shellac Reworks By Christian Löffler
--------------------------------------------------------------------------------

DR         Peak         RMS     Duration Track
--------------------------------------------------------------------------------
DR9       -0.87 dB   -13.10 dB      2:46 01-Parsifal
DR8       -0.82 dB   -12.61 dB      7:21 02-Moldau
DR10      -0.82 dB   -15.30 dB      4:12 03-Dir Jehova
DR8       -0.94 dB   -12.95 dB      3:09 04-Gavotte
DR9       -0.82 dB   -12.67 dB      4:11 05-Nocturne
DR9       -2.80 dB   -14.28 dB      1:54 06-Nadir
DR9       -0.82 dB   -13.20 dB      3:41 07-Pastoral
DR9       -0.82 dB   -12.89 dB      4:08 08-Fate
DR9       -0.82 dB   -13.86 dB      3:02 09-Freiyheit
DR9       -0.82 dB   -13.31 dB     13:41 10-Funebre
--------------------------------------------------------------------------------

Number of tracks:  10
Official DR value: DR9
Samplerate:        96000 Hz
Channels:          2
Bits per sample:   24
Bitrate:           2412 kbps
Codec:             FLAC
================================================================================
Об альбоме (сборнике)
With his mix of techno, ambient and acoustic music, DJ / Producer Christian Löffler takes a unique and successful space within the electronic music landscape. Truly using the full spectrum of available sounds, his music is characterized by a beautiful use of acoustic instruments, layering and alternating them into mesmerizing works, and warm, enveloping atmospheres. Christian Löffler reworks music by luminaries of the classical world as part of Deutsche Grammophon initiative The Shellac Project. Parallels album transports some of the earliest recordings ever made into the 21st century where Löffler’s iconic rich sound and fresh interpretations give them new life.

Loeffler reworks tracks by some of the greatest composers who ever lived, including Bach, Beethoven & Chopin. He steps away from well-trodden paths to create his own interpretations of classical greats, opening up a welcome dialogue between past & present. He has become internationally renowned for his strain of emotional electronic music, & in bringing these illustrious composers into his realm he's not only paying tribute to them but also re-inserting their music into contemporary discourse.



Christian Loffler - Parallels_Shellac Reworks By Christian Loffler (2021) (24-96).torrent
Трекер: Зарегистрирован

magnet ссылка

 


Скачать .torrent

17 KB

Статус: проверено (by Snowden в 23-Фев-21 09:42)
Зарегистрирован: 23-Фев-21 07:50
Скачан: 13 раз
Размер: 838 MB | 
Поблагодарили:
Скачать (Deep Techno, Chill Out, Leftfield, Modern Classical) Christian Loffler - Parallels: Shellac Reworks By Christian Loffler - 2021, [TR24] [OF] [FLAC, tracks, lossless] торрент
 


Похожие раздачи

Текущее время: 27-Фев 05:49

Часовой пояс: GMT + 3



Вы не можете начинать темы
Вы не можете отвечать на сообщения
Вы не можете редактировать свои сообщения
Вы не можете удалять свои сообщения
Вы не можете голосовать в опросах
Вы не можете прикреплять файлы к сообщениям
Вы не можете скачивать файлы