Loading...
Error
 

Скачать торрент Продвинутая Анимация в Anime Studio Pro 10. Видеокурс [Андрей Береснев, Илья Шибайло] (2014, Создание анимации, работа с программами, PCRec) R.G. Мастер-Класс

 
Автор Сообщение

Music Listener

post 12-Апр-15 16:14

Продвинутая Анимация в Anime Studio Pro 10


pic
  • pic Год выпуска: 2014
  • pic Страна: Россия
  • pic Тематика: Создание анимации, работа с программами
  • pic Тип материала: Обучающее видео
  • pic Продолжительность: 07:00:00
  • pic Автор: Андрей Береснев, Илья Шибайло
  • pic Язык: Русский
    pic
    pic Это курс, в котором мы собрали самые важные принципы анимации и самые полезные функции программы Anime Studio Pro 10. Если вы хотите начать профессионально развиваться в области анимации, то курс поможет вам создать качественную анимацию на таком уровне, на котором не стыдно было бы показывать её людям или делать мультфильмы на заказ.

    Кому курс будет полезен:
    • Всем, кто хочет знать, как и куда дальше развиваться. Где ваша мультипликация принесёт плоды.
    • Всем, кто хочет превратить любимое дело (рисование мультфильмов) в любимую работу, которая приносит деньги. (работая на себя)
    • Всем, кто хочет научиться создавать мультфильмы на достойном уровне.
    • Всем, кто хочет понять все сложности и нюансы сферы мультипликации.
    • Тем, кто уже создает анимацию, но не может достигнуть желаемого результата. Хочет создавать более красивую и продвинутую анимацию.


    Содержание:


    Глава 1 — Превращаем хобби в профессию (Теория)
    Урок 1 — Куда развиваться? как заработать денег или осуществить свой проект.
    Урок 2 — Что мешает нам заниматься мультипликацией.
    Урок 3 — Где взять вдохновения и сил.
    Урок 4 — Формирование стоимости анимации, встречи и переговоры с клиентами. Полезные сервисы. Секрет успешного мультфильма: методы продвижения, поиска аудитории и клиентов.

    Глава 2 — Повышаем планку анимации (практика)
    Урок 1 — Полный разбор Anime Studio Pro 10.
    Урок 2 — Рисуем эскиз и персонажа.
    Урок 3 — Техника создания правильной анимации. (тайминг, спейсинг)
    Урок 4 — Создание плавной и пластичной анимации. Анимация прыжка. (подготовка, реакция)
    Урок 5 — Разворот туловища. (фазы)
    Урок 6 — Принципы выразительной анимации.

    Глава 3 — Создаём мультфильм (практика)
    Урок 1 — Рисуем женского персонажа. (виды сбоку и с переди)
    Урок 2 — Ригинг персонажа, физика костей.
    Урок 3 — Анимация бега сбоку. (анимация волос и юбки).
    Урок 4 — Анимация бега спереди.
    Урок 5 — Выстрел из лука.
    Урок 6 — Походка.
    Урок 7 — Заготовки анимации диалогов.
    Урок 8 — Создание яркого диалога.
    Урок 9 — Изображаем эмоции персонажам.
    Урок 10 — Создание и анимация жестов и движений.
    Урок 11 — Анимация удара ногой.
    Урок 12 — Повороты головой смарт костями.
    Урок 13 — Оптимизация рендера, настройка контуров и сцены.

    Глава 4 — БОНУС (практика) — рисуем красивые фоны без навыков рисования
    Урок 1 — Простой метод рисования красивой природы.
    Урок 2 — Рисование фона комнаты в Anime studio pro 10.
    Урок 3 — Простой метод рисования улиц города.


  • pic Качество: PCRec
  • pic Формат: autorun.exe
  • pic Видео кодек: AVC
  • pic Аудио кодек: AAC
  • pic Видео: avc1, 1920х1080, 25.000 fps, ~1300 Kbps
  • pic Аудио: AAC, 48 KHz, 2 ch stereo, 317 Kbps



MediaInfo:

Код:

Общее
Формат : MPEG-4
Профиль формата : Base Media / Version 2
Идентификатор кодека : mp42
Размер файла : 341 Мбайт
Режим общего битрейта : Переменный
Общий поток : 1613 Кбит/сек

Видео
Идентификатор : 1
Формат : AVC
Формат/Информация : Advanced Video Codec
Профиль формата : [email protected]
Параметр CABAC формата : Да
Параметр ReFrames формата : 3 кадра
Параметр GOP формата : M=4, N=25
Идентификатор кодека : avc1
Идентификатор кодека/Информация : Advanced Video Coding
Вид битрейта : Переменный
Битрейт : 1300 Кбит/сек
Ширина : 1920 пикселей
Высота : 1080 пикселей
Соотношение сторон : 16:9
Режим частоты кадров : Постоянный
Частота кадров : 25,000 кадров/сек
Стандарт вещания : PAL
Цветовое пространство : YUV
Субдискретизация насыщенности : 4:2:0
Битовая глубина : 8 бит
Тип развёртки : Прогрессивная
Бит/(Пиксели*Кадры) : 0.025
Размер потока : 273 Мбайт (80%)

Аудио
Идентификатор : 2
Формат : AAC
Формат/Информация : Advanced Audio Codec
Профиль формата : LC
Идентификатор кодека : 40
Вид битрейта : Переменный
Битрейт : 317 Кбит/сек
Максимальный битрейт : 408 Кбит/сек
Каналы : 2 канала
Расположение каналов : Front: L R
Частота : 48,0 КГц
Метод сжатия : С потерями
Размер потока : 67,0 Мбайт (20%)
Размер потока оригинала : 67,0 Мбайт (20%)
Скриншоты
pic



[rustorka.com]Продвинутая Анимация в Anime Studio Pro 10 (2014).torrent
 СЕРЕБРЯНАЯ РАЗДАЧА! СКАЧАННОЕ ЗАСЧИТЫВАЕТСЯ ТОЛЬКО НАПОЛОВИНУ! 
Вечный
Трекер: Зарегистрирован

magnet ссылка

 


Скачать .torrent

50 KB

Статус: проверено (by Tarkin в 12-Апр-15 16:47)
Зарегистрирован: 12-Апр-15 16:14
Скачан: 90 раз
Размер: 6.54 GB | 
Поблагодарили:
Скачать Продвинутая Анимация в Anime Studio Pro 10. Видеокурс [Андрей Береснев, Илья Шибайло] (2014, Создание анимации, работа с программами, PCRec) R.G. Мастер-Класс торрент
 


Похожие раздачи

guevara1973guevara

post 15-Авг-15 11:54 (спустя 4 месяца 2 дня)

дайте скорости, народ :oops:

kuynakuy3

post 17-Фев-21 09:24 (спустя 5 лет 6 месяцев)

Раздайте плиз

добавлено спустя 1 минуту:
Ц Music Listener писал(а):

Продвинутая Анимация в Anime Studio Pro 10
раздайте пожалуйста

Текущее время: 02-Мар 22:50

Часовой пояс: GMT + 3



Вы не можете начинать темы
Вы не можете отвечать на сообщения
Вы не можете редактировать свои сообщения
Вы не можете удалять свои сообщения
Вы не можете голосовать в опросах
Вы не можете прикреплять файлы к сообщениям
Вы не можете скачивать файлы